Wednesday, February 17, 2016

NEW: Rolling Stones live in Buffalo 2015 - 1DVD - July 11

The Rolling Stones
2015-07-11
Ralph Wilson Stadium
Buffalo, Ny

Panasonic DMCZS8>PC>YOU
Master copy Jbarrowsrn

Jumpin' Jack Flash
It's Only Rock 'n' Roll
You Got Me Rocking
Tumbling Dice
Out of Control
Wild Horses
Can't You Hear Me Knocking
Let's Spend the Night Together
(by request)
Honky Tonk Women
(followed by band introductions)
Before They Make Me Run
Happy
Midnight Rambler

Below are Missing

Miss You (cut to hell)
Gimme Shelter
Start Me Up
Sympathy for the Devil
Brown Sugar
Encore:
You Can't Always Get What You Want
(with The Calvary Episcopal Church Choir)
Satisfaction

My 3rd Stones show of the tour and the best.
Buffalo is a party town, I must say!!
Remember if you ever go there that no
bags allowed bigger than your hand.
Hundreds and maybe a thousand people
walking back to cars to leave bags.
You can take a larger bag if it a
clear bag though.  Anyway, they seemed
full of energy on this last US show of
the tour.  My story is this was my 6th
concert in 9 days including the Grateful Dead
shows so I fucked up in packing batteries.
1 was near dead and the other not fully
charged.  The only good thing is I really
enjoyed the show after I put the camera
down so certainly worth it for me but
still wish I had the whole show on video.
Anyway, closer than my 2 previous and shot
on stage with very little from screens.
No HD because I wanted to save battery
but ran out anyway.  I see no audio for
this either and hope someone was able to
record.  Enjoy if you wish as it is pretty
good for 1/2 a show!


Video specs:

General
Format                                   : MPEG-4
Format profile                           : QuickTime
Codec ID                                 : qt
File size                                : 332 MiB
Overall bit rate mode                    : Variable
Overall bit rate                         : 9 964 Kbps
Writing library                          : pana

Video
ID                                       : 1
Format                                   : JPEG
Codec ID                                 : jpeg
Bit rate mode                            : Variable
Bit rate                                 : 9 690 Kbps
Width                                    : 640 pixels
Height                                   : 480 pixels
Display aspect ratio                     : 4:3
Frame rate mode                          : Constant
Frame rate                               : 30.000 fps
Color space                              : YUV
Chroma subsampling                       : 4:2:0
Bit depth                                : 8 bits
Compression mode                         : Lossy
Bits/(Pixel*Frame)                       : 1.051
Stream size                              : 323 MiB (97%)


Audio
ID                                       : 2
Format                                   : PCM
Format settings, Endianness              : Big
Format settings, Sign                    : Signed
Codec ID                                 : twos
Bit rate mode                            : Constant
Bit rate                                 : 256 Kbps
Channel(s)                               : 1 channel
Sampling rate                            : 16.0 KHz
Bit depth                                : 16 bits
Stream size                              : 8.53 MiB (3%)

Download part 1 here
Download part 2 here
Download part 3 here
Download part 4 here
Download part 5 here
Download part 6 here
 

No comments:

Post a Comment